Chamillionaire -《Ultimate Victory》[APE]

Chamillionaire -《Ultimate Victory》[APE]
  • 片  名  Chamillionaire -《Ultimate Victory》[APE]
  • 简  介  音乐风格: 嘻哈/说唱发行时间: 2007年09月18日地区: 美国语言: 英语
  • 类  别  音乐
  • 小  类  欧美音乐


  • 详细介绍专辑英文名: Ultimate Victory歌手: Chamillionaire音乐风格: 嘻哈/说唱资源格式: APE发行时间: 2007年09月18日地区: 美国语言: 英语简介: 专辑介绍:
    出生于休斯敦南方贫民区的Chamillionaire,在正式出道前已经累积了超过25万张的独立mixtape与专辑销售量。17岁起,Chamillionaire 和好友Paul Wall 开始参与德州大型嘻哈音乐盛会的宣传工作,也因此获得加入当地知名的Swisha House创作阵营的机会,开始和Mike Jones、Slim Thug、DJ Michael “5000” Watts… 等高手同台竞技演出。Watts还邀请两人为他在休斯敦流行电台所主持的高收听率节目创作串场音乐,为两人打开知名度。后来,两人决定脱离Swisha House羽翼,自行招兵买马成立音乐团队—— The Color Changing Click。
    2002年,The Color Changing Click的首张作品《Get Ya Mind Correct》正式诞生,迅速卖破10万张的佳绩不仅成为该年全美最畅销的独立专辑之一,还入围嘻哈乐界重要刊物The Source杂志所评选的年度独立专辑奖项肯定。而同乡饶舌猛将Lil'Flip在他全美百万销售大碟《Underground Legend》中力邀Chamillionaire跨刀,则让Chamillionaire获得全美各大主流唱片大厂的注意,积极展开抢人大战。Chamillionaire的首张个人专辑《The Sound of Revenge》于2005年11月22日发表,并且大获成功。
    Ultimate Victory是Chamillionaire第二张个人专辑,9月18日正式发行,这张专辑邀请了诸多大牌参与制作和合声,如Lil' Wayne,Slick Rick和Devin The Dude等等
  • Chamillionaire -《Ultimate Victory》[APE]_large

精选评论

这张是锯口盘,非常非常可惜,最后4首歌都伤到了,没办法听。但考虑到这张专辑还是不错的,有朋友在找。还是发上来了。
0 0~~~封面的老黑 看着真猛~~呵呵~~~~那也同样感谢楼主的共享
要是MP3就好了!APE太大了!不过还是支持!
APE的,俺下来听听,谢谢分享!
不知道那位朋友有 Chamillionaire的《Mixtape Messiah 5》无损。也是不错的一张。能否共享一下哦!
CUE呀.....555555555555555555555
CUE文件下不回来
楼主能贴出来吗
谢谢了



REM COMMENT "ExactAudioCopy v0.99pb4"
FILE "Chamillionaire - Ultimate Victory.ape" WAVE
TRACK 01 AUDIO
TITLE "The Morning News"
PERFORMER "Chamillionaire"
INDEX 01 00:00:00
TRACK 02 AUDIO
TITLE "Hip Hop Police feat. Slick Rick"
PERFORMER "Chamillionaire"
INDEX 00 03:56:40
INDEX 01 03:58:22
TRACK 03 AUDIO
TITLE "Standing Ovation"
PERFORMER "Chamillionaire"
INDEX 00 08:07:64
INDEX 01 08:09:46
TRACK 04 AUDIO
TITLE "Wont Let You Down"
PERFORMER "Chamillionaire"
INDEX 00 12:35:20
INDEX 01 12:37:02
TRACK 05 AUDIO
TITLE "Industry Groupie"
PERFORMER "Chamillionaire"
INDEX 00 17:13:09
INDEX 01 17:14:66
TRACK 06 AUDIO
TITLE "Pimp Mode feat. Bun B"
PERFORMER "Chamillionaire"
INDEX 00 20:45:72
INDEX 01 20:47:54
TRACK 07 AUDIO
TITLE "Rock Star feat. Lil Wayne"
PERFORMER "Chamillionaire"
INDEX 00 26:08:18
INDEX 01 26:10:00
TRACK 08 AUDIO
TITLE "Skit"
PERFORMER "Chamillionaire"
INDEX 00 31:09:03
INDEX 01 31:10:60
TRACK 09 AUDIO
TITLE "The Bill Collecta feat. Krayzie Bone"
PERFORMER "Chamillionaire"
INDEX 00 34:13:58
INDEX 01 34:15:40
TRACK 10 AUDIO
TITLE "The Ultimate Vacation"
PERFORMER "Chamillionaire"
INDEX 00 38:05:36
INDEX 01 38:07:18
TRACK 11 AUDIO
TITLE "Come Back To The Streets"
PERFORMER "Chamillionaire"
INDEX 00 42:11:30
INDEX 01 42:13:12
TRACK 12 AUDIO
TITLE "I Think I Love You"
PERFORMER "Chamillionaire"
INDEX 00 47:03:31
INDEX 01 47:05:13
TRACK 13 AUDIO
TITLE "The Evening News"
PERFORMER "Chamillionaire"
INDEX 00 51:47:17
INDEX 01 51:48:74
TRACK 14 AUDIO
TITLE "Welcome To The South feat. Pimp C"
PERFORMER "Chamillionaire"
INDEX 00 55:55:31
INDEX 01 55:57:13
TRACK 15 AUDIO
TITLE "You Must Be Crazy feat. Lil Ken"
PERFORMER "Chamillionaire"
INDEX 00 60:07:63
INDEX 01 60:09:45
TRACK 16 AUDIO
TITLE "We Breakin Up"
PERFORMER "Chamillionaire"
INDEX 00 65:02:14
INDEX 01 65:03:71
TRACK 17 AUDIO
TITLE "(Skit) Stuck In The Ghetto feat. Tony Henry"
PERFORMER "Chamillionaire"
INDEX 00 69:42:49
INDEX 01 69:44:31
TRACK 18 AUDIO
TITLE "Rocky Road feat. Devin The Dude"
PERFORMER "Chamillionaire"
INDEX 00 71:27:46
INDEX 01 71:29:28
TRACK 19 AUDIO
TITLE "The Ultimate Victory"
PERFORMER "Chamillionaire"
INDEX 00 76:26:51
INDEX 01 76:28:33
Chamillionaire 的ape,支持支持!!!