Kenny Burrell -《Guitar Forms》[FLAC]

Kenny Burrell -《Guitar Forms》[FLAC]
  • 片  名  Kenny Burrell -《Guitar Forms》[FLAC]
  • 简  介  音乐风格: 爵士发行时间: 1965年
  • 类  别  音乐
  • 小  类  欧美音乐


  • 详细介绍专辑英文名: Guitar Forms歌手: Kenny Burrell音乐风格: 爵士资源格式: FLAC发行时间: 1965年简介: 专辑介绍:
    Kenny.burrell原名为Kenneth Earl Burrell,崛起咆勃爵士乐(Bebop)时期并且至今仍活跃于乐坛的吉他大师,1950年进入韦恩州立大学音乐系,次年成为“晕眩”葛利斯比(Dizzy Gillespie)六重奏的一员,并灌录了首张专辑,稳定地开展全新的演奏生涯。Burrell喜欢用直接、简约的旋律线打动听者,从而表达出优雅温和的吉他音色,表现出他个人性格的特色。我们很少在他的作品中发现他过渡使用音效,或扭曲原始的感觉,相反的,他个人相信强烈的情感依然可以透过流畅不做作的首发完整的宣泄出来。自70年代起,他任教于洛杉矶的数所大学,教导出不少知名的乐手,同时持续的灌录自己的作品,继续以不同的乐风展现心得...
    在爵士乐吉他手中,Kenny.burrell的地位似乎是出于爵士与蓝调的边境,从小接触蓝调的burrell在拨弦之中,有意无意的染上蓝色调。Blue Note在5、60年代交接之际,主力大多放在Hard bop上,Kenny.burrell在当时的作品中显得相当不同。《mindnight blue》是burrell在蓝调之音旗下发行的第四张唱片,burrell为了让音乐架构更单纯,舍弃了蓝调音乐中非常重要的钢琴。少了钢琴之后,burrell的吉他部分有更大的空间可以发挥,纯然以及他为主杆的蓝调风格爵士乐。节奏组合加入些许拉丁情调,是的草根性的蓝调感染热带的奔放情绪,成为另一种节奏蓝调的表现。进入午夜的蓝调,不需要嘶声力竭的呐喊,不需要电光火石的速度,而是一种更深沉的思考心情。偶尔激昂、有时快乐,burrell的吉他光晕照的人有点昏沉,又好像有什么道理在,却禁不起追根到底的辩证,毕竟蓝调是100%的心情音乐。burrell的蓝是透明的...
    Kenny.burrell在《 Guitar Forms》中,和编曲家Gll Evans合作。Evans的酷派优雅风格,和精擅咆勃爵士又演奏得唯美内敛的burrell搭配的非常好。Evans把burrel放到一个更大的框架当中,以大乐团来担任伴奏,带着些许异国情调的编曲,在一个优雅悦耳的声音环境中.将burrel的吉他表现拉到一个更高的层次,但是burrel又能够透过吉他表达出旋律当中的单纯美感,非常悦耳而高雅的一张唱片。
  • Kenny Burrell -《Guitar Forms》[FLAC]_large

精选评论

jazz都以大号小号为主,怎么以吉他做封面?自从玩了废土2,我就爱上了jazz
LS看简介了没...
哪本教科书上规定jazz以管乐器为主了~~
看来大乐队的概念在这么多年来还是深入人心...呵呵...
不错!这段时间对吉他JAZZ很感冒!上瘾了!
Kenny.burrell,我喜欢的爵士吉他大师,尤其喜欢 Midnight Blue这张,谢谢楼主!
引用Exact Audio Copy V0.99 prebeta 4 from 23. January 2008

EAC 抓取日志文件从28. 十二月 2009, 0:34

Kenny Burrell / Guitar Forms

使用驱动器 :MATSHITADVD-RAM UJ-852S Adapter: 0 ID: 0

读取模式 : 保护
使用精确流 : 是
废除音频缓冲 : 是
使用 C2 指针 : 否

读取偏移校正 : 102
读取 Lead-In 和 Lead-Out : 否
用静音填充抓取中丢失偏移的采样 : 是
去除首尾静音块 : 否
在 CRC 计算中使用了空样本 : 是
已用接口 : Win NT 及 2000 本地 Win32 接口

所用输出格式 : 内部 WAV 函数
样本格式 : 44.100 Hz;16 Bit;立体声


被抓轨 CD 的 TOC

音轨 | 开始 | 长度 | 起始扇区 | 结尾扇区
--------------------------------------------------
1 | 0:00.00 | 2:53.12 | 0 | 12986
2 | 2:53.12 | 9:38.10 | 12987 | 56346
3 | 12:31.22 | 4:02.03 | 56347 | 74499
4 | 16:33.25 | 2:17.02 | 74500 | 84776
5 | 18:50.27 | 4:16.50 | 84777 | 104026
6 | 23:07.02 | 3:19.73 | 104027 | 119024
7 | 26:27.00 | 4:12.55 | 119025 | 137979
8 | 30:39.55 | 4:34.20 | 137980 | 158549
9 | 35:14.00 | 3:00.07 | 158550 | 172056
10 | 38:14.07 | 4:11.33 | 172057 | 190914
11 | 42:25.40 | 3:06.25 | 190915 | 204889
12 | 45:31.65 | 2:38.40 | 204890 | 216779
13 | 48:10.30 | 2:36.00 | 216780 | 228479
14 | 50:46.30 | 2:59.25 | 228480 | 241929
15 | 53:45.55 | 3:58.72 | 241930 | 259851
16 | 57:44.52 | 4:09.65 | 259852 | 278591
17 | 61:54.42 | 3:51.18 | 278592 | 295934
18 | 65:45.60 | 3:49.00 | 295935 | 313109
19 | 69:34.60 | 3:17.67 | 313110 | 327951
20 | 72:52.52 | 3:04.30 | 327952 | 341781


范围状态及错误

已选择范围

文件名 C:UsersBENMusicKenny Burrell - Guitar Forms.wav

峰值电平 100.0 %
范围质量 100.0 %
测试 CRC E2678DD3
复制 CRC E2678DD3
复制成功

没有错误发生

状态报告结尾
爵士吉他大师!
听过一张:Midnight Blue 很好听!

感谢楼主带来这么高品质的音乐!