《剧场版宠物小精灵 超克的时空》(Pokemon the Movie)[Movie TM Single - 心のアンテナ][中川翔子][ギザみみピチュー盤][含Booklet][APE]

《剧场版宠物小精灵 超克的时空》(Pokemon the Movie)[Movie TM Single - 心のアンテナ][中川翔子][ギザみみピチュー盤][含Booklet][APE]
  • 片  名  《剧场版宠物小精灵 超克的时空》(Pokemon the Movie)[Movie TM Single - 心のアンテナ][中川翔子][ギザみみピチュー盤][含Booklet][APE]
  • 简  介  发行时间: 2009年07月15日对白语言: 日语文字语言: 日文
  • 类  别  动漫
  • 小  类  动漫周边


  • 详细介绍中文名: 剧场版宠物小精灵 超克的时空英文名: Pokemon the Movie别名: 劇場版ポケットモンスター「アルセウス超克の時空へ」资源格式: APE版本: [Movie TM Single - 心のアンテナ][中川翔子][ギザみみピチュー盤][含Booklet]发行时间: 2009年07月15日地区: 日本对白语言: 日语文字语言: 日文简介: 【动画简介】
    一个宠物精灵研究家史本瑟海利教授,正在专注于一个名叫安奥的宠物精灵的研究。拥有强大力量而又难以捉摸的安奥,由26个象字母一样的神秘图案所组成,它们的神奇力量在于能够把人的想法和梦境变成现实,但这种现实一个与我们完全隔绝的世界。这种神奇力量突然把教授带到了另一个世界,就如同两年前研究安奥时他妻子消失一样。而他们的女儿莫莉,就这样失去了爸爸妈妈,一个人守着空荡荡的房子,孤孤单单。安奥感知了她的孤独,要把她的愿望变成现实,希望能将妈妈从解救出来,并使她们重新回到现实世界中来。
    【单曲介绍】
    心のアンテナ [ギザみみピチュー盤 (期間生産限定盤)]/中川翔子商品番号 SRCL-7065
    メディア アルバム CD
    組枚数 1
    価格 1300円(税込)
    発売日 2009/07/15
    【アーティスト/ キャスト】
    中川翔子 (アーティスト) 松本隆 (作詞者)
    細野晴臣 (作曲者) 島田昌典 (編曲者)
    meg rock(日向めぐみ) (作詞者) 田代智一 (作曲者)
    nishi-ken (編曲者) 平田祥一郎 (編曲者)
    内容
    中川翔子の9枚目シングルは、作詞: 松本隆、作曲: 細野晴臣と超奇跡のコラボ楽曲。タイアップは世界に知れ渡る大人気アニメ『劇場版ポケットモンスター ダイヤモンド・パール アルセウス 超克 (ちょうこく)の時空へ』主題歌に決定! 松本・細野・ポケモンの化学反応はこの夏の注目度No.1間違えなし! 収録曲「せーので恋しちゃえ」は、「恋活遊園地 in 東京ドームシティ しょこたんのマジカルサマー 」テーマソング (7/18~9/13)、「もえよ ギザみみピチュー!」・・・アニメ「ポケットモンスター ダイヤモンド パール」エンディングテーマ (4月~O.A.中)に決定!「ギザみみピチュー」オリジナルジャケット、「しょこたん×ギザみみピチュー」コラボスーパーピクチャーレーベル仕様。 ※2009年9月30日までの期間生産限定。 ※他の2形態 (SRCL-7063、SRCL-7065)とは、収録曲順の1曲目と4曲目が入れ替わります。
    【收录曲目】
    1 心のアンテナ
    2 せーので恋しちゃえ
    3 もえよ ギザみみピチュー! (うた: ギザみみピチュー starring しょこたん)
    4 心のアンテナ
    5 心のアンテナ -Haruomi Hosono Original Mix- (Instrumental)
  • 《剧场版宠物小精灵 超克的时空》(Pokemon the Movie)[Movie TM Single - 心のアンテナ][中川翔子][ギザみみピチュー盤][含Booklet][APE]_large

精选评论

中文名: 宠物小精灵剧场版第12弹~超克的时空主题曲
版本: [Movie Theme Single - 心のアンテナ][中川翔子][含Booklet]

文件名: 宠物小精灵剧场版第12弹~超克的时空主题曲.-.[Pokemon][Movie Theme Single - 心のアンテナ][中川翔子].单曲.(APE).rar

【单曲介绍】

【收录曲目】上面多空了一行.
最近出了剧场版么...
拜托把名字写清楚,还以为剧场版出来了呢
你是有意的吗,原名明明就有主题曲几个字为什么要省略掉
忽悠
好回忆呀 收下了
是三部曲的最后一部了吧.......歌先听着......等片子咯~~
= =吓我一跳,这可是3神兽最后之战啊,每次想去就鸡冻了。。。不要忽悠,标题改正吧
REM GENRE Anime
REM DATE 2009
REM DISCID 2C054E05
REM COMMENT "ExactAudioCopy v0.95b4"
PERFORMER "中川翔子"
TITLE "心のアンテナ [ギザみみピチュー盤]"
FILE "中川翔子 - 心のアンテナ [ギザみみピチュー盤].ape" WAVE
TRACK 01 AUDIO
TITLE "心のアンテナ -Haruomi Hosono Original Mix-"
PERFORMER "中川翔子"
INDEX 01 00:00:00
TRACK 02 AUDIO
TITLE "せーので恋しちゃえ"
PERFORMER "中川翔子"
INDEX 00 04:15:40
INDEX 01 04:16:50
TRACK 03 AUDIO
TITLE "もえよ ギザみみピチュー! "
PERFORMER "中川翔子"
INDEX 00 09:07:51
INDEX 01 09:08:00
TRACK 04 AUDIO
TITLE "心のアンテナ"
PERFORMER "中川翔子"
INDEX 00 13:28:63
INDEX 01 13:29:30
TRACK 05 AUDIO
TITLE "心のアンテナ -Haruomi Hosono Original Mix- (Instrumental)"
PERFORMER "中川翔子"
INDEX 00 18:20:15
INDEX 01 18:23:21
你这个动画简介 应该是炎帝那集吧
不错
支持~~有没有剧场版合集的无损版啊?
LZ有美版的麽 ?

美版的也很好听啊.