Various Artist -《Ministry of Sound The Annual 2010 》3CD[FLAC]

Various Artist -《Ministry of Sound The Annual 2010 》3CD[FLAC]
  • 片  名  Various Artist -《Ministry of Sound The Annual 2010 》3CD[FLAC]
  • 简  介  音乐类型: 电子音乐发行时间: 2009年10月22日
  • 类  别  音乐
  • 小  类  其它音乐


  • 详细介绍简介: 发行公司:Ministry Of Sound
    专辑介绍:
    Ministry Of Sound,想来大家是不会陌生的,这已是跳舞圈中最为名闻遐邇与最具规模的Super Club之一。最初由DJ Justin Berkman创立、於91年9月98正式开幕的Ministry Of Sound,其实只是要完成他创立一个和纽约的Paradise Garage具一样规模之大型Club的梦想,而 Ministry Of Sound亦是英国第一间获准24小时营业的Dance Club。之后Ministry Of Sound更茁壮,不但拥有他们的官方网站,更进一步成立了同名的唱片厂牌.这张是Ministry Of Sound/10月发行的最新HOUSE专辑 。引领全球舞曲走向,率先将引爆排行畅销大热门单曲匯集整理出,以《The Annual 2010》三CD豪华包装问世
    封底图片:cd碟片封面图片:
    CD1:CD2:CD3:本人北京时间晚上8点到12点都在线
  • Various Artist -《Ministry of Sound The Annual 2010 》3CD[FLAC]_large

精选评论

5555555555都没人……
CD抓轨日志:

CD1:
Exact Audio Copy V0.99 prebeta 4 from 23. January 2008

EAC extraction logfile from 7. November 2009, 0:32

Various / The Annual 2010 [UK]

Used drive : HL-DT-STBD-RE GGW-H20L Adapter: 0 ID: 2

Read mode : Secure
Utilize accurate stream : Yes
Defeat audio cache : Yes
Make use of C2 pointers : No

Read offset correction : 667
Overread into Lead-In and Lead-Out : No
Fill up missing offset samples with silence : Yes
Delete leading and trailing silent blocks : No
Null samples used in CRC calculations : Yes
Used interface : Installed external ASPI interface
Gap handling : Appended to previous track

Used output format : User Defined Encoder
Selected bitrate : 1024 kBit/s
Quality : High
Add ID3 tag : No
Command line compressor : C:Program FilesExact Audio CopyFlacflac.exe
Additional command line options : -8 -V -T "ARTIST=%a" -T "TITLE=%t" -T "ALBUM=%g" -T "DATE=%y" -T "TRACKNUMBER=%n" -T "GENRE=%m" -T "COMMENT=EAC FLAC - 8 - oan" %s


TOC of the extracted CD

Track | Start | Length | Start sector | End sector
---------------------------------------------------------
1 | 0:00.00 | 3:44.17 | 0 | 16816
2 | 3:44.17 | 4:27.72 | 16817 | 36913
3 | 8:12.14 | 3:47.45 | 36914 | 53983
4 | 11:59.59 | 4:31.48 | 53984 | 74356
5 | 16:31.32 | 4:13.03 | 74357 | 93334
6 | 20:44.35 | 4:13.02 | 93335 | 112311
7 | 24:57.37 | 4:27.66 | 112312 | 132402
8 | 29:25.28 | 3:43.22 | 132403 | 149149
9 | 33:08.50 | 3:50.51 | 149150 | 166450
10 | 36:59.26 | 4:16.55 | 166451 | 185705
11 | 41:16.06 | 4:42.61 | 185706 | 206916
12 | 45:58.67 | 3:58.10 | 206917 | 224776
13 | 49:57.02 | 3:43.19 | 224777 | 241520
14 | 53:40.21 | 3:28.28 | 241521 | 257148
15 | 57:08.49 | 4:20.35 | 257149 | 276683
16 | 61:29.09 | 3:58.10 | 276684 | 294543
17 | 65:27.19 | 3:13.37 | 294544 | 309055
18 | 68:40.56 | 3:13.37 | 309056 | 323567
19 | 71:54.18 | 3:28.28 | 323568 | 339195
20 | 75:22.46 | 3:45.26 | 339196 | 356096


Track 1

Filename C:oan1 - Armand Van Helden & A-TRAK Present Duck Sauce - aNYway.wav

Pre-gap length 0:00:02.00

Peak level 98.8 %
Track quality 100.0 %
Test CRC 3264F85B
Copy CRC 3264F85B
Track not present in AccurateRip database
Copy OK

CD2:
Exact Audio Copy V0.99 prebeta 4 from 23. January 2008

EAC extraction logfile from 7. November 2009, 20:56

Various / The Annual 2010 [UK]

Used drive : HL-DT-STBD-RE GGW-H20L Adapter: 0 ID: 2

Read mode : Secure
Utilize accurate stream : Yes
Defeat audio cache : Yes
Make use of C2 pointers : No

Read offset correction : 667
Overread into Lead-In and Lead-Out : No
Fill up missing offset samples with silence : Yes
Delete leading and trailing silent blocks : No
Null samples used in CRC calculations : Yes
Used interface : Installed external ASPI interface
Gap handling : Appended to previous track

Used output format : User Defined Encoder
Selected bitrate : 1024 kBit/s
Quality : High
Add ID3 tag : No
Command line compressor : C:Program FilesExact Audio CopyFlacflac.exe
Additional command line options : -8 -V -T "ARTIST=%a" -T "TITLE=%t" -T "ALBUM=%g" -T "DATE=%y" -T "TRACKNUMBER=%n" -T "GENRE=%m" -T "COMMENT=EAC FLAC - 8 - oan" %s


TOC of the extracted CD

Track | Start | Length | Start sector | End sector
---------------------------------------------------------
1 | 0:00.00 | 3:24.42 | 0 | 15341
2 | 3:24.42 | 3:46.18 | 15342 | 32309
3 | 7:10.60 | 3:13.44 | 32310 | 46828
4 | 10:24.29 | 4:05.54 | 46829 | 65257
5 | 14:30.08 | 4:28.03 | 65258 | 85360
6 | 18:58.11 | 4:57.63 | 85361 | 107698
7 | 23:55.74 | 3:57.67 | 107699 | 125540
8 | 27:53.66 | 3:43.56 | 125541 | 142321
9 | 31:37.47 | 4:56.68 | 142322 | 164589
10 | 36:34.40 | 4:19.49 | 164590 | 184063
11 | 40:54.14 | 3:43.28 | 184064 | 200816
12 | 44:37.42 | 3:35.71 | 200817 | 217012
13 | 48:13.38 | 4:18.54 | 217013 | 236416
14 | 52:32.17 | 3:48.73 | 236417 | 253589
15 | 56:21.15 | 4:13.12 | 253590 | 272576
16 | 60:34.27 | 4:42.71 | 272577 | 293797
17 | 65:17.23 | 4:16.66 | 293798 | 313063
18 | 69:34.14 | 3:58.21 | 313064 | 330934
19 | 73:32.35 | 2:28.68 | 330935 | 342102
20 | 76:01.28 | 3:00.63 | 342103 | 355665


Track 1

Filename C:oan1 - Basshunter - Every Morning.wav

Pre-gap length 0:00:02.00

Peak level 98.8 %
Track quality 99.9 %
Test CRC 4BDAEF9D
Copy CRC 4BDAEF9D
Track not present in AccurateRip database
Copy OK

CD3:
Exact Audio Copy V0.99 prebeta 4 from 23. January 2008

EAC extraction logfile from 7. November 2009, 23:57

Various / The Annual 2010 [UK]

Used drive : HL-DT-STBD-RE GGW-H20L Adapter: 0 ID: 2

Read mode : Secure
Utilize accurate stream : Yes
Defeat audio cache : Yes
Make use of C2 pointers : No

Read offset correction : 667
Overread into Lead-In and Lead-Out : No
Fill up missing offset samples with silence : Yes
Delete leading and trailing silent blocks : No
Null samples used in CRC calculations : Yes
Used interface : Installed external ASPI interface
Gap handling : Appended to previous track

Used output format : User Defined Encoder
Selected bitrate : 1024 kBit/s
Quality : High
Add ID3 tag : No
Command line compressor : C:Program FilesExact Audio CopyFlacflac.exe
Additional command line options : -8 -V -T "ARTIST=%a" -T "TITLE=%t" -T "ALBUM=%g" -T "DATE=%y" -T "TRACKNUMBER=%n" -T "GENRE=%m" -T "COMMENT=EAC FLAC - 8 - oan" %s


TOC of the extracted CD

Track | Start | Length | Start sector | End sector
---------------------------------------------------------
1 | 0:00.00 | 3:47.66 | 0 | 17090
2 | 3:47.66 | 3:56.23 | 17091 | 34813
3 | 7:44.14 | 3:12.63 | 34814 | 49276
4 | 10:57.02 | 2:57.24 | 49277 | 62575
5 | 13:54.26 | 3:04.59 | 62576 | 76434
6 | 16:59.10 | 3:49.31 | 76435 | 93640
7 | 20:48.41 | 3:04.06 | 93641 | 107446
8 | 23:52.47 | 4:25.06 | 107447 | 127327
9 | 28:17.53 | 4:08.37 | 127328 | 145964
10 | 32:26.15 | 3:39.07 | 145965 | 162396
11 | 36:05.22 | 4:23.48 | 162397 | 182169
12 | 40:28.70 | 2:22.48 | 182170 | 192867
13 | 42:51.43 | 3:50.30 | 192868 | 210147
14 | 46:41.73 | 5:07.17 | 210148 | 233189
15 | 51:49.15 | 4:23.21 | 233190 | 252935
16 | 56:12.36 | 4:56.17 | 252936 | 275152
17 | 61:08.53 | 4:43.15 | 275153 | 296392
18 | 65:51.68 | 5:31.67 | 296393 | 321284
19 | 71:23.60 | 3:59.30 | 321285 | 339239
20 | 75:23.15 | 3:29.31 | 339240 | 354945


Track 1

Filename C:oan1 - Sidney Samson - Riverside (Rene Amez Riverkass Clean Remix).wav

Pre-gap length 0:00:02.00

Peak level 98.8 %
Track quality 100.0 %
Test CRC 0E251094
Copy CRC 0E251094
Track not present in AccurateRip database
Copy OK
哇好东西,放心吧,肯定有人的。
好 我顶你 不知道好不好听 试试先 lz你自己买的碟?
请楼主兄弟给点资源吧,谢谢。