《狼与香辛料第二季主题曲》(Spice_and_Wolf_2nd_Season)[OP Single - 蜜の夜明け][新居昭乃][附BK][APE+MP3(320Kbps)]

《狼与香辛料第二季主题曲》(Spice_and_Wolf_2nd_Season)[OP Single - 蜜の夜明け][新居昭乃][附BK][APE+MP3(320Kbps)]
  • 片  名  《狼与香辛料第二季主题曲》(Spice_and_Wolf_2nd_Season)[OP Single - 蜜の夜明け][新居昭乃][附BK][APE+MP3(320Kbps)]
  • 简  介  发行时间: 2009年08月05日对白语言: 日语文字语言: 日文
  • 类  别  动漫
  • 小  类  动漫周边


  • 详细介绍中文名: 狼与香辛料第二季主题曲英文名: Spice_and_Wolf_2nd_Season别名: 狼と香辛料II版本: [OP Single - 蜜の夜明け][新居昭乃][附BK][APE+MP3(320Kbps)]发行时间: 2009年08月05日地区: 日本对白语言: 日语文字语言: 日文简介: 【剧情简介】
    旅行于各地贩卖并收购物品的商人克拉福·罗伦斯,拜访帕斯罗村并离开后,在自己的马车上发现了不知从哪里跑来的东西。
    拨开从帕斯罗村购买的小麦束后,竟然发现一位拥有兽耳与尾巴的少女。
    少女自称为贤狼赫萝,是带给帕斯罗村长期丰收的少女。
    “虽然咱长久以来被尊为神,不过,咱就是咱,咱是赫萝。”
    见到少女的一只手变化成狼脚的罗伦斯,虽然一边怀疑赫萝的身份,但一边也答应让想回到出生的「遥远的北方」的少女一同旅行…
    【单曲介绍】
    TVアニメ『狼と香辛料 II』オープニングテーマ: 蜜の夜明け
    新居昭乃 商品番号 VTCL-35063
    メディア マキシシングル CD
    組枚数 1
    価格 1050円(税込)
    発売日 2009/08/05
    内容
    大好評のうちに放送を終えた『狼と香辛料』の第2期がスタート! オープニングは新居昭乃が担当!
    【Artist/Cast】
    新居昭乃 (アーティスト)保刈久明 (編曲者)
    【收录曲目】
    1 蜜の夜明け
    2 Ekleipsis
    3 Monday,Tuesday
    4 蜜の夜明け(w/o akino)
  • 《狼与香辛料第二季主题曲》(Spice_and_Wolf_2nd_Season)[OP Single - 蜜の夜明け][新居昭乃][附BK][APE+MP3(320Kbps)]_large

精选评论

就个人感觉- -偶更喜欢第1季的OP啊- -
今天怎么那么多新翻的歌曲发售啊,太爽了,都喜欢~!
这个不如第一季啊,唉,好像没什么动画越做越好的。。。

是啊,虽说新居昭乃出新歌也蛮让人高兴的,但还是更希望这一季也是清浦夏实唱的啊
飘渺依旧 不知道完整版怎么样米!~
新居来得好感动>w<''

同意!
感谢楼主分享!
修复CUE

CATALOG 4580226565317
PERFORMER "新居昭乃"
TITLE "TVアニメ『狼と香辛料 II』オープニングテーマ: 蜜の夜明け"
FILE "CDImage.ape" WAVE
TRACK 01 AUDIO
TITLE "蜜の夜明け"
PERFORMER "新居昭乃"
ISRC JPG750900468
INDEX 01 00:00:00
TRACK 02 AUDIO
TITLE "Ekleipsis"
PERFORMER "新居昭乃"
ISRC JPG750900469
INDEX 00 04:51:39
INDEX 01 04:54:11
TRACK 03 AUDIO
TITLE "Monday,Tuesday"
PERFORMER "新居昭乃"
ISRC JPG750900144
INDEX 00 08:59:08
INDEX 01 09:02:54
TRACK 04 AUDIO
TITLE "蜜の夜明け(w/o akino)"
PERFORMER "新居昭乃"
ISRC JPG750900470
INDEX 00 13:22:10
INDEX 01 13:26:57
我把新居昭乃恍惚间看成了新房昭之.....一时手快进来了...罪过罪过....
这个得赞一下~
感觉第三首Monday,Tuesday比OP还惊艳耶,整整听了一晚上=。=
楼主把第二季的OP反复听几遍
慢慢跟着唱
就会发现其实第二季的OP也很不错
新居绍乃就是神!
好东西啊,收走,谢谢啊。。。

看来我火星了,我也很喜欢第一季的OP但是,说新房会作曲,我还真是第一次听。