Madonna -《美国生活》(American Life)[APE]

Madonna -《美国生活》(American Life)[APE]
  • 片  名  Madonna -《美国生活》(American Life)[APE]
  • 简  介  发行时间: 2003年04月22日地区: 美国语言: 英语
  • 类  别  音乐
  • 小  类  欧美音乐


  • 详细介绍专辑英文名: American Life专辑中文名: 美国生活歌手: Madonna资源格式: APE发行时间: 2003年04月22日地区: 美国语言: 英语简介:
    专辑简介:
      《美国生活》出版时正逢美国“倒萨”伊拉克战争,麦当娜站出来向世界大声疾呼和平共处,更不惜花费巨资制作反战音乐录影带,亲自上阵向布什扔手榴弹,此举让伊拉克解除了对她长达几十年的音乐禁售令,但是在美国国内引起争议;而另一支单曲《好莱坞》的音乐录影带中,麦当娜也赋予了美国文化以全新的形象,对虚假的好莱坞明星生活作了讽刺。另外,《美国生活》还收录007主题曲《择日而亡》,麦当娜本人的造型也由金发改为黑发……《美国生活》是麦当娜出道以来的第13张个人专辑。《美国生活》一经推出,只两周时间就“统一”了23个国家的唱片销量榜冠军宝座,全球销售超过200万张。外界评此专辑比不上她以前的唱片,走下坡路了,但总算还有几首好歌,一张专辑做到这个程度对麦当娜来说可能不够,谁让她以前的表现过于突出呢。而操刀制作这张唱片的音乐人还是法国电子乐名将Mirwais,此人在娜姐先前一张专辑中也担任制作人一职。
  • Madonna -《美国生活》(American Life)[APE]_large

精选评论

Die Another Day这首不错
Love Profusion
Madonna.-.[American.Life].专辑.(ape).cue


TITLE "American Life"
FILE "Madonna.-.[American.Life].专辑.(ape).ape" WAVE
TRACK 01 AUDIO
TITLE "American Life"
PERFORMER "Madonna"
REM GENRE Pop
REM DATE 2003
INDEX 01 00:00:00
TRACK 02 AUDIO
TITLE "Hollywood"
PERFORMER "Madonna"
REM GENRE Pop
REM DATE 2002
INDEX 01 04:57:63
TRACK 03 AUDIO
TITLE "I'm So Stupid"
PERFORMER "Madonna"
REM GENRE Pop
REM DATE 2003
INDEX 00 09:21:67
INDEX 01 09:22:18
TRACK 04 AUDIO
TITLE "Love Profusion"
PERFORMER "Madonna"
REM GENRE Pop
REM DATE 2003
INDEX 00 13:28:18
INDEX 01 13:30:59
TRACK 05 AUDIO
TITLE "Nobody Knows Me"
PERFORMER "Madonna"
REM GENRE Pop
REM DATE 2003
INDEX 00 17:07:35
INDEX 01 17:08:50
TRACK 06 AUDIO
TITLE "Nothing Fails"
PERFORMER "Madonna"
REM GENRE Pop
REM DATE 2003
INDEX 01 21:48:06
TRACK 07 AUDIO
TITLE "Intervention"
PERFORMER "Madonna"
REM GENRE Pop
REM DATE 2003
INDEX 00 26:36:42
INDEX 01 26:36:58
TRACK 08 AUDIO
TITLE "X-Static Process"
PERFORMER "Madonna"
REM GENRE Pop
REM DATE 2003
INDEX 00 31:30:30
INDEX 01 31:31:29
TRACK 09 AUDIO
TITLE "Mother And Father"
PERFORMER "Madonna"
REM GENRE Pop
REM DATE 2003
INDEX 00 35:20:28
INDEX 01 35:20:52
TRACK 10 AUDIO
TITLE "Die Another Day"
PERFORMER "Madonna"
REM GENRE Pop
REM DATE 2003
INDEX 00 39:52:69
INDEX 01 39:54:07
TRACK 11 AUDIO
TITLE "Easy Ride"
PERFORMER "Madonna"
REM GENRE Pop
REM DATE 2003
INDEX 00 44:30:21
INDEX 01 44:32:39
hao
喜欢娜姐或阿姨
支持
第九首把第十首的一小段包括了,以下是修改的

PERFORMER "Madonna"
TITLE "American Life"
FILE "Madonna - American Life.ape" ape
TRACK 01 AUDIO
TITLE "01 - American Life"
PERFORMER "Madonna"
FLAGS DCP
INDEX 01 00:00:00
TRACK 02 AUDIO
TITLE "02 - Hollywood"
PERFORMER "Madonna"
FLAGS DCP
INDEX 01 04:57:63
TRACK 03 AUDIO
TITLE "03 - I'm So Stupid"
PERFORMER "Madonna"
FLAGS DCP
INDEX 00 09:21:67
INDEX 01 09:22:18
TRACK 04 AUDIO
TITLE "04 - Love Profusion"
PERFORMER "Madonna"
FLAGS DCP
INDEX 00 13:28:18
INDEX 01 13:30:59
TRACK 05 AUDIO
TITLE "05 - Nobody Knows Me"
PERFORMER "Madonna"
FLAGS DCP
INDEX 00 17:07:35
INDEX 01 17:08:50
TRACK 06 AUDIO
TITLE "06 - Nothing Fails"
PERFORMER "Madonna"
FLAGS DCP
INDEX 01 21:48:06
TRACK 07 AUDIO
TITLE "07 - Intervention"
PERFORMER "Madonna"
FLAGS DCP
INDEX 00 26:36:42
INDEX 01 26:36:58
TRACK 08 AUDIO
TITLE "08 - X-Static Process"
PERFORMER "Madonna"
FLAGS DCP
INDEX 00 31:30:30
INDEX 01 31:31:29
TRACK 09 AUDIO
TITLE "09 - Mother And Father"
PERFORMER "Madonna"
FLAGS DCP
INDEX 00 35:20:28
INDEX 01 35:20:52
TRACK 10 AUDIO
TITLE "10 - Die Another Day"
PERFORMER "Madonna"
INDEX 00 39:51:29
INDEX 01 39:53:17
TRACK 11 AUDIO
TITLE "11 - Easy Ride"
PERFORMER "Madonna"
FLAGS DCP
INDEX 00 44:30:21
INDEX 01 44:32:39
lz为什么··不能切割的?
我用千千·你得CUT不能分开歌的·
强烈支持
整轨的才好嘛,分割后一大堆文件,乱死了。千千播放器能支持CUE文件的,而且对CUE文件的小错误容受能力比Foobar还要好点,你怎么会分不开曲目。。。
支持楼主,其实我对麦当娜不怎么感冒,只冲一首die anothe day 来的,谢谢分享!