田震 -《38.5°C》[APE]

田震 -《38.5°C》[APE]
  • 片  名  田震 -《38.5°C》[APE]
  • 简  介  发行时间: 2005年06月12日地区: 大陆语言: 普通话
  • 类  别  音乐
  • 小  类  华语音乐


  • 详细介绍专辑中文名: 38.5°C歌手: 田震资源格式: APE发行时间: 2005年06月12日地区: 大陆语言: 普通话简介:
    专辑介绍:
      在让歌迷苦苦等待了四年后,经内地优秀音乐人精心打造的全新专辑,沿袭田震一贯的硬朗风格。专辑的后期制作,由国际顶尖制作人艾里克斯完成,他曾参与制作玛丽亚·凯丽、迈克尔·波顿、席琳·迪翁等人专辑及美国电影《蝙蝠侠》、《泰山》的电影配乐。主打造型依然保持了黑衣直发的特点,并且完全体现了田震特立独行的性格特质,迎风飘起的长发既透露出女性的妩媚,又显示出田震所特有的“酷”与“飒”的感觉;乐评人都给予这张唱片很高的评价,认为田震这张专辑应该可以成为今年华语乐坛上的一面标志性旗帜。
  • 田震 -《38.5°C》[APE]_large

精选评论

最棒的专辑.
我的至爱.
cue 文件错误的 不要下载
PERFORMER "田震"
TITLE "38.5°C"
FILE "田震.-.[38.5°C].专辑.(APE).ape" WAVE
TRACK 01 AUDIO
TITLE "日出"
PERFORMER "田震"
INDEX 01 00:00:00
TRACK 02 AUDIO
TITLE "冷艳"
PERFORMER "田震"
INDEX 01 04:37:22
TRACK 03 AUDIO
TITLE "38.5°C"
PERFORMER "田震"
INDEX 01 09:15:30
TRACK 04 AUDIO
TITLE "解冻"
PERFORMER "田震"
INDEX 01 13:47:30
TRACK 05 AUDIO
TITLE "祭忆"
PERFORMER "田震"
INDEX 01 17:55:43
TRACK 06 AUDIO
TITLE "Again"
PERFORMER "田震"
INDEX 01 22:33:57
TRACK 07 AUDIO
TITLE "Colder"
PERFORMER "田震"
INDEX 01 26:59:02
TRACK 08 AUDIO
TITLE "Everything Good"
PERFORMER "田震"
INDEX 01 30:25:15
TRACK 09 AUDIO
TITLE "尽在不言中"
PERFORMER "田震"
INDEX 01 34:21:12
TRACK 10 AUDIO
TITLE "Someone Special"
PERFORMER "田震"
INDEX 01 38:14:22
原CUE出现错乱,时间不准确,以上是本人经过修改后的CUE文件。
谢谢楼主的分享!很喜欢田震的声音,顺便问一下,为什么《阿里山的姑娘》没有啊!好像这张专辑上应该有这首歌的啊!
CUE,楼上的是里面英文名字.我修改成中文了.因为搜不到歌次哈哈

PERFORMER "田震"
TITLE "38.5°C"
FILE "田震.-.[38.5°C].专辑.(APE).ape" WAVE
TRACK 01 AUDIO
TITLE "日出"
PERFORMER "田震"
INDEX 01 00:00:00
TRACK 02 AUDIO
TITLE "冷艳"
PERFORMER "田震"
INDEX 01 04:37:22
TRACK 03 AUDIO
TITLE "38.5°C"
PERFORMER "田震"
INDEX 01 09:15:30
TRACK 04 AUDIO
TITLE "解冻"
PERFORMER "田震"
INDEX 01 13:47:30
TRACK 05 AUDIO
TITLE "祭忆"
PERFORMER "田震"
INDEX 01 17:55:43
TRACK 06 AUDIO
TITLE "回望"
PERFORMER "田震"
INDEX 01 22:33:57
TRACK 07 AUDIO
TITLE "逆流"
PERFORMER "田震"
INDEX 01 26:59:02
TRACK 08 AUDIO
TITLE "梦里相依"
PERFORMER "田震"
INDEX 01 30:25:15
TRACK 09 AUDIO
TITLE "尽在不言中"
PERFORMER "田震"
INDEX 01 34:21:12
TRACK 10 AUDIO
TITLE "玩儿个痛快"
PERFORMER "田震"
INDEX 01 38:14:22


下面的是38.5的歌词.千千搜索不到
[ti:38.5°C]
[ar:田震]
[al:38.5°C]
[00:01.08] QQ84154632 制作
[00:46.41]我盲目 顽固到一定程度
[00:53.26]贪图 每一秒幸福
[00:59.32]我表露和年纪不太相符
[01:06.43]做我爱做的每一步
[02:37.66][01:13.15] 我清楚 是不是该义无返顾
[02:44.35][01:19.90]弥补 空荡荡的屋
[02:51.09][01:26.74]想跳舞 不在乎你有不有毒
[02:58.09][01:33.34]温度 已保持不住
[03:34.52][03:03.97][01:39.48][00:11.81]就算有三十八度五
[03:37.19][03:07.58][01:42.59][00:14.80]你也必须与我共渡
[03:41.45][03:11.47][01:46.79][00:19.22]我吻你吻我 每寸肌肤
[03:44.81][03:15.01][01:50.27][00:22.47]今夜不退出
[03:47.36][03:17.06][01:52.94][00:25.20]就算有三十八度五
[03:50.65][03:20.89][01:55.93][00:28.16]也不能让爱情凝固
[03:55.01][03:24.78][02:00.16][00:32.64]我要你要我 没有满足
[03:58.46][03:28.26][02:03.77][00:36.15]不要孤独 那会更恐怖
真是非常感謝斑竹提供的資源!
支持一下,谢了
谢谢分享
支持田震,感谢楼主