James Last 詹姆斯·拉斯特 -《南国玫瑰》(Rosen aus dem Suden)[APE]

James Last 詹姆斯·拉斯特 -《南国玫瑰》(Rosen aus dem Suden)[APE]
  • 片  名  James Last 詹姆斯·拉斯特 -《南国玫瑰》(Rosen aus dem Suden)[APE]
  • 简  介  Douban2300848:8.4(105 votes)发行时间: 1980年
  • 类  别  音乐
  • 小  类  其它音乐


  • 详细介绍简介: 专辑介绍:
    一说起“南国玫瑰”,很多乐迷马上会想到小约翰·施特劳斯的《南国玫瑰圆舞曲》。是的,本专辑就是詹姆斯·拉斯特和他的乐队演奏的约翰·施特劳斯家族的圆舞曲(也称华尔兹)专辑。南国玫瑰圆舞曲是小约翰·施特劳斯作于1880年的一支圆舞曲。它是根据施特劳斯本人所作轻歌剧《女王束带里的手帕》的选曲改编而成,同年10月1日在维也纳首演。后来还曾被改编成钢琴曲。
      
      在本专辑中,詹姆斯·拉斯特保留了施特劳斯家族音乐的风格,增加了一些细节的处理和修饰,使之更加轻松和愉快,如果您是施特劳斯家族音乐迷,那么,本专辑是相当值得聆听的,至于詹姆斯·拉斯特的乐迷们,那更是具有相当的收藏价值。

  • James Last 詹姆斯·拉斯特 -《南国玫瑰》(Rosen aus dem Suden)[APE]_large

精选评论

Exact Audio Copy V0.99 prebeta 4 from 23. January 2008

EAC 抓取日志文件从11. 五月 2009, 16:22

未知艺术家 / 未知标题

使用驱动器 :TSSTcorpCD/DVDW TS-H652M Adapter: 1 ID: 1

读取模式 : 保护
使用精确流 : 是
废除音频缓冲 : 是
使用 C2 指针 : 否

读取偏移校正 : 0
读取 Lead-In 和 Lead-Out : 否
用静音填充抓取中丢失偏移的采样 : 是
去除首尾静音块 : 否
在 CRC 计算中使用了空样本 : 是
已用接口 : Win NT 及 2000 本地 Win32 接口

所用输出格式 : 内部 WAV 函数
样本格式 : 44.100 Hz;16 Bit;立体声


被抓轨 CD 的 TOC

音轨 | 开始 | 长度 | 起始扇区 | 结尾扇区
--------------------------------------------------
1 | 0:00.33 | 6:40.07 | 33 | 30039
2 | 6:40.40 | 2:40.28 | 30040 | 42067
3 | 9:20.68 | 11:30.47 | 42068 | 93864
4 | 20:51.40 | 4:08.20 | 93865 | 112484
5 | 24:59.60 | 6:22.33 | 112485 | 141167
6 | 31:22.18 | 3:03.47 | 141168 | 154939
7 | 34:25.65 | 9:53.70 | 154940 | 199484
8 | 44:19.60 | 2:32.48 | 199485 | 210932
9 | 46:52.33 | 2:38.25 | 210933 | 222807


范围状态及错误

已选择范围

文件名 E:EAC抓轨ROSEN AUS DEM SUDEN(音樂發燒碟)未知艺术家 - 未知标题.wav

峰值电平 100.0 %
范围质量 100.0 %
复制 CRC 43198021
复制成功

没有错误发生

状态报告结尾

cue:

PERFORMER "詹姆斯·拉斯特"
TITLE "Rosen aus dem Suden"
REM DISCID 690B9A09
REM COMMENT "ExactAudioCopy v0.99pb4"
FILE "James.Last.-.[Rosen.aus.dem.Suden].专辑.(ape).ape" WAVE
TRACK 01 AUDIO
TITLE "Rosen aus dem Suden"
PERFORMER "詹姆斯·拉斯特"
INDEX 00 00:00:00
INDEX 01 00:00:33
TRACK 02 AUDIO
TITLE "Leichtes Blut"
PERFORMER "詹姆斯·拉斯特"
INDEX 00 06:38:40
INDEX 01 06:40:40
TRACK 03 AUDIO
TITLE "G'schichten aus dem Wienerwald"
PERFORMER "詹姆斯·拉斯特"
INDEX 00 09:18:68
INDEX 01 09:20:68
TRACK 04 AUDIO
TITLE "Annen-polka"
PERFORMER "詹姆斯·拉斯特"
INDEX 00 20:49:40
INDEX 01 20:51:40
TRACK 05 AUDIO
TITLE "Fruhlingsstimmen-Walzer"
PERFORMER "詹姆斯·拉斯特"
INDEX 00 24:57:65
INDEX 01 24:59:60
TRACK 06 AUDIO
TITLE "Unter Donner und Blitz"
PERFORMER "詹姆斯·拉斯特"
INDEX 00 31:20:20
INDEX 01 31:22:18
TRACK 07 AUDIO
TITLE "Kaiserwalzer"
PERFORMER "詹姆斯·拉斯特"
INDEX 00 34:23:65
INDEX 01 34:25:65
TRACK 08 AUDIO
TITLE "Eljen a Magyar"
PERFORMER "詹姆斯·拉斯特"
INDEX 00 44:17:60
INDEX 01 44:19:60
TRACK 09 AUDIO
TITLE "Radetzky-Marsch"
PERFORMER "詹姆斯·拉斯特"
INDEX 00 46:50:34
INDEX 01 46:52:33
Rosen aus dem Suden - 南国玫瑰
这是詹姆斯·拉斯特(James Last)轻音乐团演奏约翰·施特劳斯家族作品的专辑。
DG出品,应是很好的专辑。
一楼回复里的CUE有二行需修正(1、5)



谢谢指正
修复完毕可以下载了么。。。

一楼的回复(CUE)是昨天发帖时写的,楼主一时没注意做相应修正而已。当然,有些网友习惯copy回复里的cue,所以也是有必要写正确了。是故提醒!与你下载没有影响的。

电驴资源链接里的CUE本身已做修改,我下了检查后加的精华!
此专辑已发过了吧?
谢谢楼主分享
多谢分享!音质很好!
多谢分享!超级喜欢。



额...
谢谢楼主分享~~
了解了~~~~~
喜欢拉斯特的天堂鸟专辑
下来听听 谢谢分享