《濑户的花嫁OVA義主题曲》(Seto no Hanayome)[OVA ED Singe-梯-かけはし-][SUN&LUNAR][附BK][APE+MP3(320Kbps)]

《濑户的花嫁OVA義主题曲》(Seto no Hanayome)[OVA ED Singe-梯-かけはし-][SUN&LUNAR][附BK][APE+MP3(320Kbps)]
  • 片  名  《濑户的花嫁OVA義主题曲》(Seto no Hanayome)[OVA ED Singe-梯-かけはし-][SUN&LUNAR][附BK][APE+MP3(320Kbps)]
  • 简  介  发行时间: 2009年01月30日对白语言: 日语文字语言: 日文
  • 类  别  动漫
  • 小  类  动漫周边


  • 详细介绍中文名: 濑户的花嫁OVA義主题曲英文名: Seto no Hanayome别名: 瀬戸の花嫁 OVA 義版本: [OVA ED Singe-梯-かけはし-][SUN LUNAR][附BK][APE+MP3(320Kbps)]发行时间: 2009年01月30日地区: 日本对白语言: 日语文字语言: 日文简介:
    【动画介绍】
    男主角永澄同学就读于埼玉县的一所极普通的高中,暑假前往海边渡假,所谓一失足成千古恨就是他遭遇的写照了。戏水时突然溺水,意识模糊之际为美丽的人鱼小姐所救,本来一切还是可以很美好,但,有谁会料到美丽的人鱼小姐不是公主而是人鱼世界的黑社会老大的女儿。
      人鱼世界的定律:如果人鱼的正体被人类看到,那只有化成泡沫消失。所以人鱼小姐如果想要活下来,只有两个方法:一是杀了永澄,另一个方法就是把永澄变成“自己人”。Marry or Die,永澄同学的人生喜剧就此喧闹地展开了。
      “普通的高中男生+温柔纤细的人鱼少女+粗线条的人鱼兄贵老爸”让人喷饭的人物架构。社会伦理道德“种间交配禁止”的人神交战成为了引导故事的脉络。也最终把此作品定位在喜剧的范畴。
    【单曲介绍】
    「瀬戸の花嫁 OVA 義」エンディングテーマ: 梯-かけはし-
    燦(CV: 桃井はるこ) 留奈(CV: 野川さくら)
    商品番号: AVCA-26966
    メディア: マキシシングルCD
    組枚数: 1
    発売日: 2009/01/30
    価格: 1260円(税込)
    内容
    アニメ「瀬戸の花嫁」の最新巻となる「OVA 義」のエンディングテーマ! 歌うのはメインヒロインの燦(CV: 桃井はるこ)と留奈(CV: 野川さくら)! カップリングにはそれぞれのソロアレンジバージョンも収録。
    【Artist Cast】
    SUN LUNAR (アーティスト) 桃井はるこ (作詞者) 
    SUN (アーティスト) LUNAR (アーティスト) 
    【收录曲目】
    1. 梯 -かけはし-/ SUN LUNAR
    2. 梯 -かけはし- ver.SUN/ SUN
    3. 梯 -かけはし- ver.LUNAR/ LUNAR
    4. 梯 -かけはし- ver.vocalless/ SUN LUNAR
  • 《濑户的花嫁OVA義主题曲》(Seto no Hanayome)[OVA ED Singe-梯-かけはし-][SUN&LUNAR][附BK][APE+MP3(320Kbps)]_large

精选评论

很喜歡!!!
好家伙,收下了
喜欢
下来听听看
濑户的花嫁OVA義主题曲
Seto no Hanayome
OVA ED Singe-梯-かけはし-
SUN&LUNAR
瀬戸の花嫁 OVA 義
超级不错的说~~~感谢LZ的辛勤分享~~~~~
爆笑~~ 音乐也不错
超级喜欢那!!!
CATALOG 4988064269662
PERFORMER "SUN & LUNAR(アーティスト仌アーティスト)"
TITLE "梯 -かけはし-"
FILE "kakehashi.ape" WAVE
TRACK 01 AUDIO
TITLE "梯 -かけはし-"
PERFORMER "SUN & LUNAR(アーティスト仌アーティスト)"
ISRC JPB600873301
INDEX 01 00:00:00
TRACK 02 AUDIO
TITLE "梯 -かけはし- ver.SUN"
PERFORMER "SUN(アーティスト)"
ISRC JPB600873302
INDEX 00 04:03:13
INDEX 01 04:05:49
TRACK 03 AUDIO
TITLE "梯 -かけはし- ver.LUNAR"
PERFORMER "LUNAR(アーティスト)"
ISRC JPB600873303
INDEX 00 08:05:61
INDEX 01 08:08:60
TRACK 04 AUDIO
TITLE "梯 -かけはし- ver.vocalless"
PERFORMER "丂"
ISRC JPB600873304
INDEX 00 12:52:49
INDEX 01 12:55:48

自己实在翻译不来呀! 仌 和 丂 是什么意思呀?求高人告诉下,LZ能翻译下吗?


多谢楼主提供