《今日的5年2班主题曲集》(Kyo no 5 no 2)[TV OP&ED in Album-BEST FRIENDS][Friends][附21BK][APE]

《今日的5年2班主题曲集》(Kyo no 5 no 2)[TV OP&ED in Album-BEST FRIENDS][Friends][附21BK][APE]
  • 片  名  《今日的5年2班主题曲集》(Kyo no 5 no 2)[TV OP&ED in Album-BEST FRIENDS][Friends][附21BK][APE]
  • 简  介  发行时间: 2009年01月07日
  • 类  别  动漫
  • 小  类  动漫周边


  • 详细介绍简介: 【簡介】
    《今天的五年二班》是一連串發生在某小學五年二班的小故事,連載於日本很受歡迎的《週刊Young Magazine》的別冊內。故事以小時作單元,對應於日本一般學校一小時一個教節,內容主要是圍繞正處於青春期的高小男生女生之間的故事描述,以及他們各自對性的憧憬。故事的主人公叫佐藤龍太(佐藤リョータ),他在學校裡都經常發生一些帶點兒H的小故事。
    本故事的漫畫單行本於2003年11月由講談社發行。在2006年6月,第二輯的故事開始連載。
    【介绍】
    今日の5の2 OPED収録アルバム - BEST FRIENDS/Friends* 商品番号: KICA-950
    * メディア: アルバムCD
    * 組枚数: 1
    * 発売日: 2009/01/07
    * 価格: 3000円(税込)
    * 内容
    アニメ「今日の5の2」から飛び出したユニット、Friendsが主題歌マキシシングルに引き続きアルバムをリリース! エンディングテーマ6曲に加え、カヴァー曲とオリジナル曲を収録。あの伝説のユニット Prits (水樹奈々、桑谷夏子、小林由美子、望月久代)の名曲「Sakura Revolution」もカヴァー!
    【Artists】
    Friends(小林ゆう、下田麻美、MAKO、明坂聡美、阿澄佳奈、本多陽子)
    【曲目】
    1. ニセモノ
    2. Sakura Revolution
    3. フレンズ
    4. 学園天国
    5. 願い
    6. 一雫
    7. rollover
    8. ガールズクライシス
    9. ユウヤケイロ
    10. 夏祭り
    11. 大爆発 NO.1
    12. secret base~君がくれたもの~
  • 《今日的5年2班主题曲集》(Kyo no 5 no 2)[TV OP&ED in Album-BEST FRIENDS][Friends][附21BK][APE]_large

精选评论

来顶楼主一个,感谢分享辛苦了!
多謝樓主分享- -

話說eMule系列到底哪個比較好用...
verymule內建網頁...其他版本卻沒有...這點我還滿喜歡的...

X7.1好像上傳不少,下載不多= =
為什麼...
哼,终于来了嘛,良太……
忽忽...管理员大大的东西一直都对我胃口....大喜
大爱啊~~
话说俺突然愣了10秒钟,然后反应过来那是当年ZONE的名曲的时候,突然感觉青春已逝,心中惆怅地不行..........俺可是极少多愁善感的。
全是乱码啊!怎么办?
TITLE "今日の5の2 OPED收録アルバム - BEST FRIENDS/Friends(小林ゆう、下田麻美、MAKO、明坂聡美、阿澄佳奈、本多陽子)"
FILE "CDImage.ape" WAVE
TRACK 01 AUDIO
TITLE "ニセモノ"
PERFORMER "Friends(小林ゆう、下田麻美、MAKO、明坂聡美、阿澄佳奈、本多陽子)"
ISRC JPKI00816134
INDEX 01 00:00:00
TRACK 02 AUDIO
TITLE "Sakura Revolution"
PERFORMER "Friends(小林ゆう、下田麻美、MAKO、明坂聡美、阿澄佳奈、本多陽子)"
ISRC JPKI00817738
INDEX 01 04:32:48
TRACK 03 AUDIO
TITLE "フレンズ"
PERFORMER "Friends(小林ゆう、下田麻美、MAKO、明坂聡美、阿澄佳奈、本多陽子)"
ISRC JPKI00817739
INDEX 00 09:07:43
INDEX 01 09:10:28
TRACK 04 AUDIO
TITLE "学園天国"
PERFORMER "Friends(小林ゆう、下田麻美、MAKO、明坂聡美、阿澄佳奈、本多陽子)"
ISRC JPKI00817740
INDEX 00 13:37:03
INDEX 01 13:39:63
TRACK 05 AUDIO
TITLE "願い"
PERFORMER "Friends(小林ゆう、下田麻美、MAKO、明坂聡美、阿澄佳奈、本多陽子)"
ISRC JPKI00816779
INDEX 00 16:45:02
INDEX 01 16:48:62
TRACK 06 AUDIO
TITLE "一雫"
PERFORMER "阿澄佳奈、本多陽子"
ISRC JPKI00817741
INDEX 00 22:17:49
INDEX 01 22:20:34
TRACK 07 AUDIO
TITLE "rollover"
PERFORMER "小林ゆう、下田麻美"
ISRC JPKI00817742
INDEX 00 26:31:68
INDEX 01 26:35:15
TRACK 08 AUDIO
TITLE "ガールズクライシス"
PERFORMER "MAKO、明坂聡美"
ISRC JPKI00817747
INDEX 00 29:47:37
INDEX 01 29:49:60
TRACK 09 AUDIO
TITLE "ユウヤケイロ"
PERFORMER "Friends(小林ゆう、下田麻美、MAKO、明坂聡美、阿澄佳奈、本多陽子)"
ISRC JPKI00816778
INDEX 00 33:15:32
INDEX 01 33:18:54
TRACK 10 AUDIO
TITLE "夏祭り"
PERFORMER "Friends(小林ゆう、下田麻美、MAKO、明坂聡美、阿澄佳奈、本多陽子)"
ISRC JPKI00816777
INDEX 00 37:49:12
INDEX 01 37:51:72
TRACK 11 AUDIO
TITLE "大爆発 NO.1"
PERFORMER "Friends(小林ゆう、下田麻美、MAKO、明坂聡美、阿澄佳奈、本多陽子)"
ISRC JPKI00816776
INDEX 00 41:48:70
INDEX 01 41:51:55
TRACK 12 AUDIO
TITLE "secret base ~君がくれたもの~"
PERFORMER "Friends(小林ゆう、下田麻美、MAKO、明坂聡美、阿澄佳奈、本多陽子)"
ISRC JPKI00816135
INDEX 00 46:11:55
INDEX 01 46:15:40


很好很好,万分感谢。


你太帅了!