刘德华 -《天开了》[APE]

刘德华 -《天开了》[APE]
  • 片  名  刘德华 -《天开了》[APE]
  • 简  介  发行时间: 2001年地区: 香港语言: 普通话
  • 类  别  音乐
  • 小  类  华语音乐


  • 详细介绍专辑中文名: 天开了歌手: 刘德华资源格式: APE发行时间: 2001年地区: 香港语言: 普通话简介:
    专辑介绍:
    刘德华2001年国语专辑《天开了》,在《全职杀手》与《瘦身男女》两部电影的档期夹杀之下火热发行。名称《天开了》,缘起于刘德华在黄山拍摄广告时遇上大雪被迫暂延拍摄。第二天一早,天开了,一袭单薄的白衣的刘德华在冻僵的情况下用了4个多小时才完成了此次拍摄。当录完全部歌曲,并选中刘德华在黄山松雪景前的照片做为封面时,刘德华便大胆提议以“天开了”做为专辑名称。
    主打曲“我的心只可容纳你” 由刘德华填词,赵增熹作曲,藉由弦乐表现山水的绵延与人类的深情,华仔唱来更显豪迈中的细致,兼容义气与深情;“偷听女孩心” 轻松有趣,刘德华创作诫谐的词加上初次尝试的Rap曲风,提醒男孩们除了有君子的外形外,还要有耐性;“一壶乡愁”是周杰伦特别为华仔写的曲,将家乡喻为母亲的怀抱,对常常到外地工作的华仔来说,乡愁岂止一壶;“空心”是继《男人哭吧不是罪》后再次在华仔的唱腔中见到急待释放的奔腾情感;“腻了”是整张专辑中最早确认的一首歌,标准刘德华情歌模式。相处久了,一方腻了,一方累了,谁愿意感情的结局如此不堪,但遇上了,唯有承受;“踢出个未来”是陈德建与刘德华共同为周星驰和赵薇主演的电影《少林足球》创作的主题曲;男男女女一生承诺天天相伴有情歌,愿意就没有怨言,愿意就不怕苦,在这世上,我们往往愿意为错的人付出,不求回报,这就是“愿意”所要告诉你的;而“专一只因为你”的轻松中带着稍许的紧张,是因为在乎,所以想去解释,却又把过去说得太清楚,是一种恋爱中人常见的混乱,华仔的角色,正如其电影中的扮相,恰如其分。
    此次华仔参与了全程音乐制作,除了自己创作了4首半歌词外,还邀请杜自持、周杰伦等好朋友跨刀。对华仔来说,写歌词总是能把自己的心意藉由音乐和歌迷分享。另外,华仔还要特别感谢合作以久的制作人Jacky,因为他很清楚自己的特质与状况,所以能在这么忙碌和短时间内把这张专辑做好。
    1兆ADSL,低ID,每天19:00-22:00在线,长期有效
  • 刘德华 -《天开了》[APE]_large

精选评论

支持华仔!!谢谢分享!!
PERFORMER "刘德华"
TITLE "天开了"
FILE "CDImage.ape" WAVE
TRACK 01 AUDIO
TITLE "我的心只可容纳你"
PERFORMER "刘德华"
INDEX 01 00:00:00
TRACK 02 AUDIO
TITLE "偷听女孩心"
PERFORMER "刘德华"
INDEX 00 04:18:67
INDEX 01 04:19:10
TRACK 03 AUDIO
TITLE "一壶乡愁"
PERFORMER "刘德华"
INDEX 00 08:19:09
INDEX 01 08:21:02
TRACK 04 AUDIO
TITLE "空心"
PERFORMER "刘德华"
INDEX 00 12:08:40
INDEX 01 12:10:00
TRACK 05 AUDIO
TITLE "腻了"
PERFORMER "刘德华"
INDEX 00 15:47:06
INDEX 01 15:47:47
TRACK 06 AUDIO
TITLE "踢出个未来"
PERFORMER "刘德华"
INDEX 00 20:17:71
INDEX 01 20:18:25
TRACK 07 AUDIO
TITLE "原来你才是天堂"
PERFORMER "刘德华"
INDEX 00 24:15:44
INDEX 01 24:16:32
TRACK 08 AUDIO
TITLE "愿意"
PERFORMER "刘德华"
INDEX 00 28:26:57
INDEX 01 28:26:72
TRACK 09 AUDIO
TITLE "其中一位"
PERFORMER "刘德华"
INDEX 01 32:34:10
TRACK 10 AUDIO
TITLE "专一只因为你"
PERFORMER "刘德华"
INDEX 00 36:43:09
INDEX 01 36:43:20
TRACK 11 AUDIO
TITLE "我的心只可容纳你(有你真好)版"
PERFORMER "刘德华"
INDEX 00 40:49:21
INDEX 01 40:51:37
cue列表好像不对啊!楼主看看!谢谢分享!!
谢谢楼上的朋友!!可以了
谢谢2楼!!!
华仔的,绝不放过!!!嘿嘿……
无源啊 大哥大姐啊
下十来天 没反应 还是6%
这张碟的KTV MTV吗?最喜欢MTV啦,可以唱歌仔
顶一下 个人比较喜欢这专辑
感觉这张专辑不错
下完,后面部分比较慢些....
谢谢二楼,刚刚没看见,自己排了一下....+_+!!!!
勉强。


整张唱片水平是比较高的。“腻了”的歌词写得特别好,
“是你腻了,就连给我的爱都变成了施舍”
”是你腻了,虽然最伤的话你从来不曾说过“