《光之美少女 Fresh Precure主题曲》(Fresh Pretty Cure)[OP&ED Single][茂家瑞季/林桃子][附BK][APE+MP3(320Kbps)]

《光之美少女 Fresh Precure主题曲》(Fresh Pretty Cure)[OP&ED Single][茂家瑞季/林桃子][附BK][APE+MP3(320Kbps)]
  • 片  名  《光之美少女 Fresh Precure主题曲》(Fresh Pretty Cure)[OP&ED Single][茂家瑞季/林桃子][附BK][APE+MP3(320Kbps)]
  • 简  介  发行时间: 2009年02月04日对白语言: 日语文字语言: 日文
  • 类  别  动漫
  • 小  类  动漫周边


  • 详细介绍中文名: 光之美少女 Fresh Precure主题曲英文名: Fresh Pretty Cure别名: フレッシュプリキュア!版本: [OP ED Single][茂家瑞季/林桃子][附BK][APE+MP3(320Kbps)]发行时间: 2009年02月04日地区: 日本对白语言: 日语文字语言: 日文简介:
    【动画介绍】
    桃园爱,是四叶中学初中2年级。
      某一日,桃园爱去观看了大受欢迎的热门舞蹈剧“特里尼提”的实况录音现场表演,并因为“特里尼提”的队长——miyuki的舞蹈而深受感动,产生了“我想也那样子跳舞!”的梦想。
      然而,由于突然出现的“ナケワメーケ”的原因,原本非常成功的的实况录音会场产生了大恐慌。而这只是谋图控制全国,支配全世界的组织“ラビリンス”的邪恶阴谋的一部分。
      “想要保护憧憬的人!想再一次看到‘特里尼提’的实况录音表演!”在强烈的心意的驱动下,使用不可思议的钥匙型妖精“ピックルン”与便携式记事本“リンクルン”的力量,传说中的战士——Pretty Cure变身!!
      与从妖精的国家スウィーツ前来的タルト、シフォン、青梅竹马苍乃美希与山吹祈里一起,用爱、希望以及祈祷来打到ラビリンス的野心吧!
    【单曲介绍】
    TVアニメ「フレッシュプリキュア!」 オープニングテーマ: Let's! フレッシュプリキュア! / エンディングテーマ: You make me happy!
    アニメ (茂家瑞季/林桃子)
    商品番号: MJCD-23059
    メディア: マキシシングルCD
    組枚数: 1
    発売日: 2009/02/04
    価格: 1260円(税込)
    内容
    超人気TVアニメ プリキュアシリーズ の最新作「フレッシュプリキュア」オープニング エンディングテーマを収録したシングルが早くもリリース!!
    【Artist Cast】
    茂家瑞季 (アーティスト) 六ツ見純代 (作詞者) 
    高取ヒデアキ (作曲者) 亀山耕一郎 (編曲者) 
    marhy (作曲者) 
    【收录曲目】
    1. Let's!フレッシュプリキュア!/ 茂家瑞季
    2. You make me happy!/ 林桃子
    3. Let's!フレッシュプリキュア!(オリジナルカラオケ)/ 茂家瑞季
    4. You make me happy!(オリジナルカラオケ)/ 林桃子
  • 《光之美少女 Fresh Precure主题曲》(Fresh Pretty Cure)[OP&ED Single][茂家瑞季/林桃子][附BK][APE+MP3(320Kbps)]_large

精选评论

REM GENRE Anime(J)
REM DATE 2009
REM DISCID 2B038204
REM COMMENT "ExactAudioCopy v0.99pb4"
PERFORMER "茂家瑞季/林桃子"
TITLE "Let'sフレッシュプリキュア!/You make me happy!"
FILE "茂家瑞季 林桃子 - Let'sフレッシュプリキュア! You make me happy!.ape" WAVE
TRACK 01 AUDIO
TITLE "Let'sフレッシュプリキュア!"
PERFORMER "茂家瑞季/林桃子"
INDEX 01 00:00:00
TRACK 02 AUDIO
TITLE "You make me happy!"
PERFORMER "茂家瑞季/林桃子"
INDEX 00 03:42:14
INDEX 01 03:44:51
TRACK 03 AUDIO
TITLE "Let'sフレッシュプリキュア!(オリジナルカラオケ)"
PERFORMER "茂家瑞季/林桃子"
INDEX 00 07:27:36
INDEX 01 07:30:73
TRACK 04 AUDIO
TITLE "You make me happy(オリジナルカラオケ)"
PERFORMER "茂家瑞季/林桃子"
INDEX 00 11:13:05
INDEX 01 11:15:46
谢谢楼主了~
很喜欢!!但硬盘空间吃紧啊..... O__O"…
原来是最新一季的歌。可惜各字幕组对这个不感兴趣。我找了一下,发觉在电驴上,前面几季的歌曲好多是以“美丽祭师二人组”的名称发布的,想找的朋友要留意了。
恩恩,我在听着了,很好听的。